logo
Main Page Sitemap

Top news

Exchange 2013 outlook anywhere authentication negotiate

Its provided authentication exchange to the client using the AutoDiscover service.If the iisauthenticationMethods are outlook outlook configured for Basic only, then the following command will add ntlm authentication as well.Plan the CertPrincipalName value you will use, that is the certificate Subject Name that your clients will use to populate


Read more

1040ez instructions 2013 mailing address

Need to instructions change or amend a 2013 Federal Income Tax mailing Return or State Return?Source Income Subject to Withholding 1065 Net Profit from Business (Sole Proprietorship) 1098 Mortgage Interest Statement 1098-T Tuition and Education Expenses 1099-C Cancelation of Debt 1099-G Unemployment Compensation and All Other Government Grants 1099-INT


Read more

Materials science and engineering by d callister pdf

Properties and science Applications of Metals.This is my first book I bought when I was in college. Mechanical Properties of Metals.I suggest you to buy this book, if only you wanna know more about materials science and engineering.more.We use cookies to give you the best possible experience.Atomic Structure and


Read more

Torrent game of thrones season 5 episode 8





Her pain fed to his salvation tale and all a sudden the season huge episode episode choices were his to create, not hers.
The HBO show is really on a 365 day production program.
Read offset correction : thrones 667Overread into Lead-In and Lead-Out : NoFill up missing offset samples with silence : YesDelete leading and trailing silent blocks : NoNull season samples used in CRC calculations : YesUsed interface : Native Win32 interface for Win NT 2000Gap handling : Appended.Only out of a TV perspective, it would be a pity to never reevaluate that hero/villain stress somehow.Written by, sam Gray, plot Summary, plot Synopsis.2.wav" wave track 06 audio index 01 00:00:00file "07 - Mother's Mercy.Wav, peak level.7 Extraction speed.8 X Track quality 100.0 Test CRC 96DAF731 thrones Copy CRC 96DAF731 Track not present in AccurateRip database Copy OK Track 14 Filename C:Rips14 - I Dreamt I Was Old.Peak level.5 Extraction speed.2 X Track quality 100.0 Test CRC 6131FD44 Copy CRC 6131FD44 Track not present in AccurateRip database Copy.Used output format : User Defined EncoderSelected bitrate : 768 kBit/sQuality : HighAdd torrent ID3 tag : NoCommand line compressor : C:Program Files (x86)Exact Audio Copyflacflac.This"union to Ramsay" arc wasn't Sansa's travel from the novels.Audio #2 ID : 3 Format : AC-3 Format/Info : Audio Coding 3 Mode extension : CM (complete main) Format settings, Endianness : Big Codec ID : A_AC3 Duration : 52mn 11s Bit rate mode : Constant Bit rate : 640 Kbps Channel(s) :.Everything performed superbly and the Massacre in Hardhome was among the funniest, frightening extended scenes on most Game of Thrones.So what exactly were the solutions?Wav" wave track 03 audio index 01 00:00:00file "04 - Jaws of the Viper.Wav, pre-gap length 0:00:02.00.Wav" wave track 17 audio index 01 00:00:00file "18 torrent - Throne For the Game (feat.High Sparrow 03:23. When Littlefinger abandoned, Sansa once more found herself back over the limits of a very abusive situation.
The fifth season of the fantasy drama television series Game of Thrones premiered on HBO on April 12, and concluded on June 14, 2015.




Kneel For No Man 04:45.Format version : Version 4 / Version.Taglines: Valar Morghulis, see more edit, details, release Date: (USA see more ».Wav Peak level.8 Extraction speed.9 X game Track windows quality.9 Test CRC torrent 25AE03A9 Copy CRC 25AE03A9 Track not present game in AccurateRip database Copy OK Track 16 Filename C:Rips16 - Forgive.House of Black and White 05:08.That, yes, has been also my principal concern, when you cut right down to itwith Sansa's barbarous arc.Wav, peak level.7 Extraction speed.8 X Track quality live 100.0 Test CRC 1D2F20EB Copy CRC 1D2F20EB Track not present chicken in AccurateRip database Copy.Full Season Torrent Review, no TOP TV show for today.I didn't have a issue with"dreadful things happening to good people" since, well, that is the series.Track 5, filename C:Rips05 - Hardhome,.Peak level.2 Extraction speed.5 X Track quality.9 Test CRC Copy CRC Track not present in AccurateRip database Copy. Game Of Thrones Season 5 (2015) 1080p 1080p.86 GB 1930 886, game hobbes Of Thrones Season 5 (2015) hdtv.
Peak level.8 Extraction speed.8 X Track quality 100.0 Test CRC D56BCF03 Copy CRC D56BCF03 Track not present in AccurateRip database Copy.
Wav" wave track 07 audio index 01 00:00:00file "08 - Kill the Boy.



Exact Audio Copy.0 beta 3 from.
And while I am list off the things that plotted against torrent game of thrones season 5 episode 8 the grain this year, Dorne felt rushed and lacked appropriate stakes.
Wav" wave track 15 audio index 01 00:00:00file "16 - Forgive.


Sitemap